百度云资源论坛

 找回密码
 立即注册
搜索
热搜: 百度云资源
开启左侧

[我不是龙套.I.Am.Not.An.Extra][纯净版][网盘下载][WEB-MP4/1.45GB][国语中字][1080P ...

[复制链接]
百度云资源 发表于 2021-9-8 10:15:34 | 显示全部楼层 |阅读模式
-->eadbf3d55b00e15358ca9e43d939ee47.jpg




◎译  名 I Am Not An Extra
◎片  名 我不是龙套 / 勇者无惧之奋斗
◎年  代 2021
◎产  地 中国大陆
◎类  别 喜剧 / 动作
◎语  言 汉语普通话
◎上映日期 2021-09-05(中国大陆)
◎片  长 83分钟
◎导  演 杨健武 Kin Mo Yeung
◎主  演 钱小豪 Siu-hou Chin
       胡然 Michelle Hu
       张明明 Mingming Zhang
       高智洋 Zhiyang Gao
       程琢 Zhuo Cheng


◎标  签 动作 | 剧情 | 大陆 | 2021 | 电影 | 中国 | 钱小豪 | 中国电影


◎简  介


  学成出师的王兆杰(钱小豪 饰)、吴立(程琢 饰演)及一众师弟,踏入影视圈做武术替身演员。因兆杰功夫过硬且十分敬业,得到女星陈诗琦(胡然饰)青睐担任其替身演员,却得罪同组富二代男演员葛政(张明明 饰)。葛政对王兆杰各种使坏,甚至让师弟重伤入院。心有所愧的兆杰人生陷入黑暗,燃烧的武术梦也逐渐暗淡……


60dc167c3cce2c6c946c0b4cdd6fadd0.jpg


General


Complete name               : 我不是龙套.I.Am.Not.An.Extra.2021.1080P.WEB-DL.X264.AAC-Vampire.mp4
Format                      : MPEG-4
Format profile              : Base Media
Codec ID                    : isom (isom/iso2/avc1/mp41)
File size                   : 1.46 GiB
Duration                    : 1 h 21 min
Overall bit rate            : 2 572 kb/s
Movie name                  : 我不是龙套/I.Am.Not.An.Extra
Album                       : 国产电影系列
Performer                   : Vampire制作分享作品
Genre                       : 中国大陆
Recorded date               : 2021
Writing application         : Lavf58.32.104
Cover                       : Yes
Comment                     : 警告:严禁将本人制作的任何作品用于商业性质活动,所有制作作品仅限于测试宽带之用,请于下载后24小时内删除。本人不承担任何法律后果!喜欢本作品请购买正版!!!


Video
ID                          : 1
Format                      : AVC
Format/Info                 : Advanced Video Codec
Format profile              :
Format settings             : CABAC / 4 Ref Frames
Format settings, CABAC      : Yes
Format settings, Reference  : 4 frames
Codec ID                    : avc1
Codec ID/Info               : Advanced Video Coding
Duration                    : 1 h 21 min
Bit rate                    : 2 471 kb/s
Width                       : 1 920 pixels
Height                      : 818 pixels
Display aspect ratio        : 2.35:1
Frame rate mode             : Variable
Frame rate                  : 25.000 FPS
Minimum frame rate          : 24.993 FPS
Maximum frame rate          : 25.007 FPS
Color space                 : YUV
Chroma subsampling          : 4:2:0
Bit depth                   : 8 bits
Scan type                   : Progressive
Bits/(Pixel*Frame)          : 0.063
Stream size                 : 1.40 GiB (96%)
Writing library             : ptw-1.0.134 rcm-adapt vs-93 vwk
Color range                 : Limited
Color primaries             : BT.709
Transfer characteristics    : BT.709
Matrix coefficients         : BT.709
Codec configuration box     : avcC


Audio
ID                          : 2
Format                      : AAC LC
Format/Info                 : Advanced Audio Codec Low Complexity
Codec ID                    : mp4a-40-2
Duration                    : 1 h 21 min
Bit rate mode               : Constant
Bit rate                    : 93.4 kb/s
Channel(s)                  : 2 channels
Channel layout              : L R
Sampling rate               : 48.0 kHz
Frame rate                  : 46.875 FPS (1024 SPF)
Compression mode            : Lossy
Stream size                 : 54.2 MiB (4%)
Default                     : Yes
Alternate group             : 1


本人发布的种子请使用专业BT下载工具:
UT,Bitcomet,qBittorrent,Xdown开启上传后再下载!!!
使用迅雷或度盘离线可能会没速度!!!


视频的网盘资源均在视频后缀(如mp4或mkv)后又跟随了.xy(mp4.xy或mkv.xy)用以混淆官方视听!
并且加密了文件名,设置了独有的解压密码,请使用WinRAR解压,使用好压或其他可能会出错!
已完结剧集不再分集打包上传,整体打包后分卷,无法单独下载某一集,需要全部下载后一起解压,敬请知晓!
请各位下载的坛友先保存至自己的网盘,然后再进行下载!!!
不要直接在线观看或者解压,否则会很快被网盘官方发觉并和谐!!!



阿里云盘后缀名凡是“PDF”的,请在下载完成后将后缀名“PDF”修改为“rar”,即可正常解压,观看!
目前阿里云盘上传和下载均不限速,趁着这段“免费VIP”的时间,就暂时放弃度盘吧!


请下载完成的朋友自觉做种一段时间,小水管出种不易,且下且珍惜,谢谢!!!


解压请使用官方原版WinRAR,使用破解版或者好压等软件可能会出错,感谢所有赞赏的朋友!!!
                                                                                                                                                                                                        
                                                                                                                                                                                                                                                                                                                                                                                                                                                                                                                                                                                                                                                                                                                                                                                                                                                        
1d4c11d346a839df25bd5ef5f12edaa0.rar (708.74 KB, 下载次数: 0)

回复

使用道具 举报

小黑屋|百度云资源论坛 ( 闽ICP备16005822号-1 )

本网站所有资源来自网络,如无意中侵犯了您的权益,请发邮件至 [email protected],立即清除相关链接

GMT+8, 2021-9-22 12:41 , Processed in 0.074190 second(s), 17 queries .

Powered by Discuz! X3.4

© 2001-2017 Comsenz Inc.

快速回复 返回顶部 返回列表